VideoHive Dragonfly 3 8284412

Dragonfly 3

VideoHive Dragonfly 3 8284412
Stock Footage \ Nature
Format \ Duration \ Settings \ Channel \ Pixels \ Stream \ Variable \ Overall



Stock Footage - Dragonfly 3 8284412
by badbad @ VideoHive

Stock Footage \ Nature

Dragonfly
FHD 1920×1080 , 59.94P

Details
Video Encoding : Photo JPEG
Codec ID : qt
File size : 506 MiB
Duration : 20s 20ms
Overall bit rate mode : Variable
Overall bit rate : 212 Mbps

Video
Format : JPEG
Codec ID : jpeg
Duration : 20s 20ms
Bit rate mode : Variable
Bit rate : 211 Mbps
Width : 1 920 pixels
Height : 1 080 pixels
Display aspect ratio : 16:9
Frame rate mode : Constant
Frame rate : 59.940 fps
Color space : YUV
Chroma subsampling : 4:2:2
Bit depth : 8 bits
Compression mode : Lossy
Bits/(Pixel*Frame) : 1.694
Stream size : 502 MiB (99%)

Audio
Format : PCM
Format settings, Endianness : Little
Format settings, Sign : Signed
Codec ID : sowt
Duration : 20s 20ms
Bit rate mode : Constant
Bit rate : 1 536 Kbps
Channel(s) : 2 channels
Channel positions : Front: L R
Sampling rate : 48.0 KHz
Bit depth : 16 bits
Stream size : 3.67 MiB (1%)

Alpha Channel: No; Looped Video: No; Frame Rate: 60; Resolution: 1920x1080; Video Encoding: Photo JPEG; File Size: 506mb; Total Clip(s) Length: 0:20.

Lotus In Fish Pond 3; Giant Afican Snail 2; Big And Small Snail ; Giant Afican Snail 1; Small Snail Slow Walking; Snail Fast Walking 2; Snail Fast Walking.

Keywords: animal, blossom, bug, dragonfly, evening, flora, flower, flying, insect, nature, plant, summer, warm, wildlife, wing.

Comments:

Name:*
E-Mail:*
Add Comments:
Enter Code: *