VideoHive Dragonfly 2 8284122

Dragonfly 2

VideoHive Dragonfly 2 8284122
Stock Footage \ Nature
Format \ Duration \ Settings \ Channel \ Pixels \ Overall \ Variable \ Stream



Stock Footage - Dragonfly 2 8284122
by badbad @ VideoHive

Stock Footage \ Nature

Dragonfly

FHD 1920×1080 , 59.94p

Video Encoding : Photo JPEG
Codec ID : qt
File size : 598 MiB
Duration : 30s 30ms
Overall bit rate mode : Variable
Overall bit rate : 167 Mbps

Video
Format : JPEG
Codec ID : jpeg
Duration : 30s 30ms
Bit rate mode : Variable
Bit rate : 165 Mbps
Width : 1 920 pixels
Height : 1 080 pixels
Display aspect ratio : 16:9
Frame rate mode : Constant
Frame rate : 59.940 fps
Color space : YUV
Chroma subsampling : 4:2:2
Bit depth : 8 bits
Compression mode : Lossy
Bits/(Pixel*Frame) : 1.331
Stream size : 592 MiB (99%)

Audio

Format : PCM
Format settings, Endianness : Little
Format settings, Sign : Signed
Codec ID : sowt
Duration : 30s 30ms
Bit rate mode : Constant
Bit rate : 1 536 Kbps
Channel(s) : 2 channels
Channel positions : Front: L R
Sampling rate : 48.0 KHz
Bit depth : 16 bits
Stream size : 5.50 MiB (1%)

Alpha Channel: No; Looped Video: No; Frame Rate: 60; Resolution: 1920x1080; Video Encoding: Photo JPEG; File Size: 597mb; Total Clip(s) Length: 0:30.

Lotus In Fish Pond 3; Giant Afican Snail 2; Big And Small Snail ; Giant Afican Snail 1; Small Snail Slow Walking; Snail Fast Walking 2; Snail Fast Walking.

Keywords: animal, blossom, bug, dragonfly, evening, flora, flower, flying, insect, nature, plant, summer, warm, wildlife, wing.

Comments:

Name:*
E-Mail:*
Add Comments:
Enter Code: *